The Fox And The Hound 1981 iNTERNAL BDRip XviD-EXViDiNT

Posted by on Nov 18th, 2013, at 9:22 am in BDRip,Movies.

here BDRip of The Fox and the Hound.

The Fox and the Hound poster image

Genre: Animation, Adventure, Drama
Cast: Mickey Rooney, Kurt Russell, Pearl Bailey
Runtime: 83 min
Ratings: IMDB: 7.1 (39,508 votes) | RT: 69% (26 reviews)

The.Fox.And.The.Hound.1981.iNTERNAL.BDRip.XviD-EXViDiNT
1 Disc | 702 MB | exvid-foxhound1
Quality: XviD, 640×352 ,1 041 Kbps | MP3 @ 128 Kbps
Subtitles: English
Samples: one, two, three

Homepage | Wiki | Trailer
NFO | Torrent | Usenet

Synopsis: Two childhood animal friends find themselves forced to become enemies.
The Fox and the Hound image

Feel free to post any comments about The Fox And The Hound 1981 iNTERNAL BDRip XviD-EXViDiNT, including links to downloads, samples, screenshots, information, or any other relevant information. Please note that anything you download from here, you do so at your own risk. Remember if you see Trusted Poster, this means they are trusted commentors!

3 Comments about “The Fox And The Hound 1981 iNTERNAL BDRip XviD-EXViDiNT”

  1. 1. yaman Nov 18th, 2013 at 11:15 am
  2. 2. ARIO Nov 18th, 2013 at 7:49 pm
  3. 3. ARIO Nov 18th, 2013 at 7:52 pm

    Info file :
    [see my post #3]:
    =====================

    The.Fox.And.The.Hound.1981.iNTERNAL.BDRip.XviD-EXViDiNT

    EXViD aims to iNTERNAL those releases which have been lost in the archives.
    EXViD aims to PRE non-internal releases which have poor sources and are likely skipped by others.

    http://www.imdb.com/title/tt0082406/
    Subtitles: EN, FR, ES, IT, DE, NL, PT, TR, AR
    Date: 2013.10

    Directors: Ted Berman, Richard Rich, Art Stevens

    Genres: Animation | Adventure | Drama | Family

    Plot:
    A young fox named Tod is taken in by an old woman after his mother is killed by a hunter.
    Full of mischief, Young Tod befriends Copper, a hound dog pup. As they grow up, however,
    their friendship becomes endangered by what they have become; Copper is a hunting dog,
    and Tod is his prey.

    Cast:
    Mickey Rooney … Tod (voice)
    Kurt Russell … Copper (voice)
    Pearl Bailey … Big Mama (voice)
    Jack Albertson … Amos Slade (voice)
    Sandy Duncan … Vixey (voice)
    Jeanette Nolan … Widow Tweed (voice)
    Pat Buttram … Chief (voice)
    John Fiedler … Porcupine (voice)
    John McIntire … Badger (voice)
    Richard Bakalyan … Dinky (voice) (as Dick Bakalyan)
    Paul Winchell … Boomer (voice)
    Keith Coogan … Young Tod (voice) (as Keith Mitchell)
    Corey Feldman … Young Copper (voice)
    ‘Squeeks’ the Caterpillar … (voice)

    Stats:
    Format : AVI
    Format/Info : Audio Video Interleave
    File size : 699 MiB
    Duration : 1h 22mn
    Overall bit rate : 1 179 Kbps
    Writing application : VirtualDubMod 1.5.10.2 (build 2540/release)
    Writing library : VirtualDubMod build 2540/release

    Video
    ID : 0
    Format : MPEG-4 Visual
    Format profile : Advanced Simple@L5
    Format settings, BVOP : Yes
    Format settings, QPel : No
    Format settings, GMC : No warppoints
    Format settings, Matrix : Default (H.263)
    Muxing mode : Packed bitstream
    Codec ID : XVID
    Codec ID/Hint : XviD
    Duration : 1h 22mn
    Bit rate : 1 041 Kbps
    Width : 640 pixels
    Height : 384 pixels
    Display aspect ratio : 1.667
    Frame rate : 23.976 fps
    Color space : YUV
    Chroma subsampling : 4:2:0
    Bit depth : 8 bits
    Scan type : Progressive
    Bits/(Pixel*Frame) : 0.177
    Stream size : 617 MiB (88%)
    Writing library : XviD 64

    Audio
    ID : 1
    Format : MPEG Audio
    Format version : Version 1
    Format profile : Layer 3
    Mode : Joint stereo
    Mode extension : MS Stereo
    Codec ID : 55
    Codec ID/Hint : MP3
    Duration : 1h 22mn
    Bit rate mode : Variable
    Bit rate : 128 Kbps
    Channel(s) : 2 channels
    Sampling rate : 48.0 KHz
    Stream size : 74.2 MiB (11%)
    Alignment : Aligned on interleaves
    Interleave, duration : 24 ms (0.58 video frame)
    Interleave, preload duration : 147 ms
    Writing library : LAME3.99r
    Encoding settings : -m j -V 4 -q 2 -lowpass 17 –abr 128